Movies torrents - Other torrents

Dirty Story - (Climax) - (2015) - HDRip - x264 - AAC - Makintos13... torrent

Download Direct: Dirty Story - (Climax) - (2015) - HDRip - x264 - AAC - Makintos13... - No Client needed
(0) (0)
Download torrent: Dirty Story - (Climax) - (2015) - HDRip - x264 - AAC - Makintos13... torrent download
Torrent created: 28 Dec 2016 05:32:17
Torrent added: 28 Dec 2016 05:45:02 Report this torrent as fake!
Torrent's info hash: C34AF470CD9AAE76F8C137DD083ED46931E9F8E8
Category: Movies / Other
Seeds: 8 Scraping... Last scraped 1 d ago
Leeches: 3
Downloads: 30
Announce(s):
Tracker S L DL
http://explodie.org:6969/announce---
http://tracker.tfile.me/announce---
http://bigfoot1942.sektori.org:6969/announce---
udp://eddie4.nl:6969/announce---
udp://tracker4.piratux.com:6969/announce---
udp://tracker.trackerfix.com:80/announce
udp://tracker.pomf.se:80/announce
udp://torrent.gresille.org:80/announce
udp://9.rarbg.me:2710/announce
udp://tracker.leechers-paradise.org:6969/announce
udp://glotorrents.pw:6969/announce
udp://tracker.opentrackr.org:1337/announce
udp://tracker.blackunicorn.xyz:6969/announce
udp://tracker.internetwarriors.net:1337/announce
udp://p4p.arenabg.ch:1337/announce
udp://tracker.coppersurfer.tk:6969/announce
udp://9.rarbg.to:2710/announce
udp://tracker.openbittorrent.com:80/announce
udp://tracker.ilibr.org:80/announce
udp://tracker.zer0day.to:1337/announce
udp://p4p.arenabg.com:1337/announce
udp://explodie.org:6969/announce
udp://ipv4.tracker.harry.lu:80/announce
udp://9.rarbg.com:2710/announce
udp://tracker.ilibr.org:6969/announce
Total Size: 708.44 MB
Files:
Dirty Story - (Climax) - (2015) - HDRip - x264 - AAC - Makintos13.mkv - 708.44 MB

Description

Dirty Story - (Climax) - (2015) - HDRip - x264 - AAC - Makintos13



File size : 708 MiB
Duration : 1 h 59 min
Overall bit rate : 831 kb/s
Encoded date : UTC 2016-12-26 16:28:42
Writing application : mkvmerge v9.1.0 ('Little Earthquakes') 64bit
Writing library : libebml v1.3.3 + libmatroska v1.4.4

Video
ID : 1
Format : AVC
Format/Info : Advanced Video Codec
Format profile : [email protected]/* */
Format settings, CABAC : Yes
Format settings, ReFrames : 4 frames
Codec ID : V_MPEG4/ISO/AVC
Duration : 1 h 59 min
Bit rate : 765 kb/s
Width : 720 pixels
Height : 304 pixels
Display aspect ratio : 2.35:1
Frame rate mode : Constant
Frame rate : 25.000 FPS
Color space : YUV
Chroma subsampling : 4:2:0
Bit depth : 8 bits
Scan type : Progressive
Bits/(Pixel*Frame) : 0.140
Stream size : 652 MiB (92%)
Default : Yes
Forced : No

Audio
ID : 2
Format : AAC
Format/Info : Advanced Audio Codec
Format profile : LC
Codec ID : A_AAC
Duration : 1 h 59 min
Bit rate : 64.2 kb/s
Channel(s) : 2 channels
Channel positions : Front: L R
Sampling rate : 48.0 kHz
Frame rate : 46.875 FPS (1024 spf)
Compression mode : Lossy
Delay relative to video : 59 ms
Stream size : 54.7 MiB (8%)
Title : Stereo
Default : Yes
Forced : No

Source : [email protected]/* */ [Thanks]


Screens:

Comments: