Movies torrents - Other torrents

My.Best.Friend.2016.DVDRip.x264-RedBlade[PRiME] torrent

Download Direct: My.Best.Friend.2016.DVDRip.x264-RedBlade[PRiME] - No Client needed
(0) (0)
Download torrent: My.Best.Friend.2016.DVDRip.x264-RedBlade[PRiME] torrent download
Torrent created: 28 Dec 2016 04:16:12
Torrent added: 28 Dec 2016 04:25:02 Report this torrent as fake!
Torrent's info hash: DECF7513011CB1760ED4BD12C6D31908B2114EE6
Category: Movies / Other
Seeds: 6 Scraping... Last scraped 18 h ago
Leeches: 1
Downloads: 4
Announce(s):
Tracker S L DL
http://explodie.org:6969/announce---
http://tracker.tfile.me/announce---
http://bigfoot1942.sektori.org:6969/announce---
udp://eddie4.nl:6969/announce---
udp://tracker4.piratux.com:6969/announce---
udp://tracker.trackerfix.com:80/announce
udp://tracker.pomf.se:80/announce
udp://torrent.gresille.org:80/announce
udp://9.rarbg.me:2710/announce
udp://tracker.leechers-paradise.org:6969/announce
udp://glotorrents.pw:6969/announce
udp://tracker.opentrackr.org:1337/announce
udp://tracker.blackunicorn.xyz:6969/announce
udp://tracker.internetwarriors.net:1337/announce
udp://p4p.arenabg.ch:1337/announce
udp://tracker.coppersurfer.tk:6969/announce
udp://9.rarbg.to:2710/announce
udp://tracker.openbittorrent.com:80/announce
udp://explodie.org:6969/announce
udp://9.rarbg.com:2710/announce
udp://p4p.arenabg.com:1337/announce
udp://ipv4.tracker.harry.lu:80/announce
udp://tracker.zer0day.to:1337/announce
udp://tracker.ilibr.org:80/announce
udp://tracker.ilibr.org:6969/announce
Total Size: 899.51 MB
Files:
My.Best.Friend.2016.DVDRip.x264-RedBlade[PRiME]/My.Best.Friend.2016.DVDRip.x264-RedBlade[PRiME].mkv - 899.5 MB
My.Best.Friend.2016.DVDRip.x264-RedBlade[PRiME]/Please Support!! Read More!!!.txt - 232 B
My.Best.Friend.2016.DVDRip.x264-RedBlade[PRiME]/Torrent Downloaded From 1337x.to.txt - 69 B
My.Best.Friend.2016.DVDRip.x264-RedBlade[PRiME]/Torrent Downloaded From ExtraTorrent.cc.txt - 446 B
My.Best.Friend.2016.DVDRip.x264-RedBlade[PRiME]/Torrent downloaded from AhaShare.com.txt - 59 B

Description


My.Best.Friend.2016.DVDRip.x264-RedBlade[PRiME]

ImDb: http://www.imdb.com/title/tt4952982



Complete name : My.Best.Friend.2016.DVDRip.x264-RedBlade[PRiME].mkv
Format : Matroska
Format version : Version 2
File size : 900 MiB
Duration : 1 h 34 min
Overall bit rate : 1 325 kb/s
Encoded date : UTC 2016-12-25 18:31:50
Writing application : mkvmerge v9.6.0 ('Slave To Your Mind') 32bit
Writing library : libebml v1.3.4 + libmatroska v1.4.5

Video
ID : 1
Format : AVC
Format/Info : Advanced Video Codec
Format profile : [email protected]/* */
Format settings, CABAC : Yes
Format settings, ReFrames : 5 frames
Codec ID : V_MPEG4/ISO/AVC
Duration : 1 h 34 min
Bit rate : 1 207 kb/s
Width : 720 pixels
Height : 404 pixels
Display aspect ratio : 16:9
Frame rate mode : Constant
Frame rate : 25.000 FPS
Color space : YUV
Chroma subsampling : 4:2:0
Bit depth : 8 bits
Scan type : Progressive
Bits/(Pixel*Frame) : 0.166
Stream size : 819 MiB (91%)
Writing library : x264 core 148 r2744 b97ae06
Encoding settings : cabac=1 / ref=5 / deblock=1:0:0 / analyse=0x3:0x113 / me=umh / subme=8 / psy=1 / psy_rd=1.00:0.00 / mixed_ref=1 / me_range=16 / chroma_me=1 / trellis=1 / 8x8dct=1 / cqm=0 / deadzone=21,11 / fast_pskip=1 / chroma_qp_offset=-2 / threads=6 / lookahead_threads=1 / sliced_threads=0 / nr=0 / decimate=1 / interlaced=0 / bluray_compat=0 / constrained_intra=0 / bframes=3 / b_pyramid=2 / b_adapt=2 / b_bias=0 / direct=3 / weightb=1 / open_gop=0 / weightp=2 / keyint=250 / keyint_min=25 / scenecut=40 / intra_refresh=0 / rc_lookahead=50 / rc=crf / mbtree=1 / crf=19.0 / qcomp=0.60 / qpmin=10 / qpmax=51 / qpstep=4 / vbv_maxrate=17500 / vbv_bufsize=17500 / crf_max=0.0 / nal_hrd=none / filler=0 / ip_ratio=1.40 / aq=1:1.00
Language : English
Default : Yes
Forced : No

Audio
ID : 2
Format : AAC
Format/Info : Advanced Audio Codec
Format profile : LC
Codec ID : A_AAC
Duration : 1 h 34 min
Bit rate : 116 kb/s
Channel(s) : 2 channels
Channel positions : Front: L R
Sampling rate : 48.0 kHz
Frame rate : 46.875 FPS (1024 spf)
Compression mode : Lossy
Delay relative to video : 9 ms
Stream size : 78.8 MiB (9%)
Language : English
Default : Yes
Forced : No




Click Image To View Full Size


Click To View Screenshot
Click To View Screenshot
Click To View Screenshot

Comments: